GSM / CDMA MOBILE SOFTWARE AND HARDWARE SOLUTION
 
HomeHome  UsergroupsUsergroups  RegisterRegister  FAQFAQ  Log inLog in  

Share | 
 

 Battle Los Angeles-SKIDROW 2011

View previous topic View next topic Go down 
AuthorMessage
BONUO CELL™
® Site Admin F.F.C ®

avatar

Gender : Male
Birthday : 1979-07-01
Lokasi : flasher.home-forum.com
Job/hobbies : browsing

PostSubject: Battle Los Angeles-SKIDROW 2011   Mon May 02, 2011 6:09 am

Battle Los Angeles-SKIDROW 2011

[You must be registered and logged in to see this image.]

Quote:
?INFO?
********************************************************************************************************************

Battle.Los Angeles 2011 TS XViD - IMAGiNE
********************************************************************************************************************

Ripper ...........: IMAGiNE IMDB Rating.......:6.8/10
Video Codec.......: XVID Release Date......:15/03/11
Audio Codec.......:MP3 Theatre Date......:11/03/11
Audio Bitrate.....:128 Runtime.......:1h 50mn
Subtitles.........:NIL Language..........:ENGLISH
Resolution...... 720 x 336 IMDb URL..........:http://www.imdb.com/title/tt1217613/


DETAILS:

Video
ID : 0
Format : MPEG-4 Visual
Format profile : Advanced Simple@L5
Format settings, BVOP : Yes
Format settings, QPel : No
Format settings, GMC : No warppoints
Format settings, Matrix : Default (MPEG)
Muxing mode : Packed bitstream
Codec ID : XVID
Codec ID/Hint : XviD
Duration : 1h 50mn
Bit rate : 1 636 Kbps
Width : 720 pixels
Height : 336 pixels
Display aspect ratio : 2.2
Frame rate : 25.000 fps
Resolution : 24 bits
Colorimetry : 4:2:0
Scan type : Progressive
Bits/(Pixel*Frame) : 0.271
Stream size : 1.26 GiB (92%)
Writing library : XviD 61

Audio
ID : 1
Format : MPEG Audio
Format version : Version 1
Format profile : Layer 3
Codec ID : 55
Codec ID/Hint : MP3
Duration : 1h 50mn
Bit rate mode : Constant
Bit rate : 128 Kbps
Channel(s) : 2 channels
Sampling rate : 44.1 KHz
Resolution : 16 bits
Stream size : 101 MiB (7%)
Alignment : Split accross interleaves
Interleave, duration : 40 ms (1.00 video frame)
Interleave, preload duration : 500 ms


[You must be registered and logged in to see this image.]

[You must be registered and logged in to see this image.]

[You must be registered and logged in to see this image.]

[You must be registered and logged in to see this image.]

[You must be registered and logged in to see this image.]

Code:
[You must be registered and logged in to see this link.] ... MAGiNE.avi

========================================================================================
DON'T SPAMM HERE


[You must be registered and logged in to see this image.]
[You must be registered and logged in to see this image.][You must be registered and logged in to see this image.][You must be registered and logged in to see this image.]
[You must be registered and logged in to see this image.]
Back to top Go down
 

Battle Los Angeles-SKIDROW 2011

View previous topic View next topic Back to top 
Page 1 of 1

Permissions in this forum:You cannot reply to topics in this forum
GSM-Forum :: == FLASHER FORUM M A N I A == :: ENTERTAINMENT :: MOVIE MANIA / VIDEO CLIP-